[Login] or [Signup]
Login
Username:
Password:
[Signup]
[Recover Account]


Poll


You must be logged in to view polls



Torrent Details For "Krishnarjuna Yuddham 2018 Hindi Dubbed Movie WEBRip x264"

Krishnarjuna Yuddham 2018 Hindi Dubbed Movie WEBRip x264

Download this torrent | Magnet Download
Health:
Seeds: 245
Leechers: 116
Completed: 1,037 
Last Checked: 15-01-2019 14:58:32
External Torrent
Update Stats
Download Magnet


Poster


iMDB
Imdb Picture Title: Krishnarjuna Yudham
Year: 2018
Runtime: 156 minutes
Votes: 374
Rating: 6.0/10
Language: Telugu
Country: India
All Genres: Drama
Plot Outline: A pair of look-a-likes hatch a plan to win over the women they love.


Director: Merlapaka Gandhi
Writing By: Arjun,Carthyk,Merlapaka Gandhi,
Produced By: Venkat Boyanapalli,Sahu Garapati,Harish Peddi,Venkatarathnam,
Music: Hiphop Tamizha Adhi
Cast:
Nani as Krishna / Arjun
Anupama Parameshwaran as Subba Lakshmi
Rukhsar Dhillon as
Brahmaji as
Devadarshini Chetan as
Penchal Das as Special Appearance
Nagineedu as
Deepak Ravella as Rahul
Chandra Sekhar as
Prabhas Sreenu as


Watch-Free-HD     Download

Details
Name:Krishnarjuna Yuddham 2018 Hindi Dubbed Movie WEBRip x264
Description:


Krishnarjuna Yuddham 2018 Hindi Dubbed Movie WEBRip x264


http://www.imdb.com/title/tt7770192/




[code]
General
Complete name                            : Krishnarjuna Yuddham 2018 Hindi Dubbed Movie WEBRip x264.mp4
Format                                   : MPEG-4
Format profile                           : Base Media
Codec ID                                 : isom (isom/iso2/avc1/mp41)
File size                                : 1.39 GiB
Duration                                 : 2 h 36 min
Overall bit rate mode                    : Variable
Overall bit rate                         : 1 273 kb/s
Video
ID                                       : 1
Format                                   : AVC
Format/Info                              : Advanced Video Codec
Format profile                           : [email protected]
Format settings                          : CABAC / 2 Ref Frames
Format settings, CABAC                   : Yes
Format settings, RefFrames               : 2 frames
Codec ID                                 : avc1
Codec ID/Info                            : Advanced Video Coding
Duration                                 : 2 h 36 min
Duration_FirstFrame                      : -67 ms
Bit rate                                 : 1 104 kb/s
Width                                    : 1 280 pixels
Height                                   : 720 pixels
Display aspect ratio                     : 16:9
Frame rate mode                          : Variable
Frame rate                               : 29.970 FPS
Minimum frame rate                       : 9.990 FPS
Maximum frame rate                       : 29.970 FPS
Color space                              : YUV
Chroma subsampling                       : 4:2:0
Bit depth                                : 8 bits
Scan type                                : Progressive
Bits/(Pixel*Frame)                       : 0.040
Stream size                              : 1.20 GiB (87%)
Writing library                          : x264 core 112 r1834 a51816a
Audio
ID                                       : 2
Format                                   : AAC
Format/Info                              : Advanced Audio Codec
Format profile                           : LC
Codec ID                                 : mp4a-40-2
Duration                                 : 2 h 36 min
Bit rate mode                            : Variable
Bit rate                                 : 165 kb/s
Channel(s)                               : 2 channels
Channel positions                        : Front: L R
Sampling rate                            : 48.0 kHz
Frame rate                               : 46.875 FPS (1024 SPF)
Compression mode                         : Lossy
Stream size                              : 185 MiB (13%)
[/code]








Category:Movies > Bollywood
Lang:Hindi
Total Size:1.39 GB
Info Hash:4ff56ef00efc884996240137b11014f4b38a7aad
Added By:Unknown
Date Added:10-01-2019 19:41:53
Views:1,013
Hits:38

Download Torrent

Ratings:Not Yet Rated (Log in to rate it)


Tracker:
udp://tracker.opentrackr.org:1337/announce


File List: 


Comments

No comments still posted

Powered by 10 Hamsters v2-svn -|- Page Generated In 5.022883 secs.
-|- RSS FEED
Theme By: Nikkbu