[Login] or [Signup]
Login
Username:
Password:
[Signup]
[Recover Account]


Poll


You must be logged in to view polls



Torrent Details For "Ishqeria 2018 Hindi WEB-DL 720p x264 AAC"

Ishqeria 2018 Hindi WEB-DL 720p x264 AAC

Download this torrent | Magnet Download
Health:
Seeds: 77
Leechers: 48
Completed: 473 
Last Checked: 13-01-2019 06:09:24
External Torrent
Update Stats
Download Magnet


Poster


iMDB
Title: Ishqeria
Year: 2018
Runtime: 118 minutes
Votes: 37
Rating: 7.5/10
Language: Hindi
Director: Prerna Wadhawan
Writing By: Radhika Anand,Prerna Wadhawan,
Produced By: Indivar Bhatia,Pooja Verma,Prerna Wadhawan,Ravi Wadhawan,
Cast:
Manish Anand as
Richa Chadha as Kuhu
Juby Devasia as
Gurbani as
Neil Nitin Mukesh as Rhagav
Mrudula Sathe as


Watch-Free-HD     Download

Details
Name:Ishqeria 2018 Hindi WEB-DL 720p x264 AAC
Description:


Ishqeria 2018 Hindi WEB-DL 720p x264 AAC


http://www.imdb.com/title/tt2802062/




[code]
General
Complete name                            : Ishqeria 2018 Hindi WEB-DL 720p x264 AAC.mp4
Format                                   : MPEG-4
Format profile                           : Base Media
Codec ID                                 : isom (isom/iso2/avc1/mp41)
File size                                : 1.27 GiB
Duration                                 : 2 h 22 min
Overall bit rate mode                    : Variable
Overall bit rate                         : 1 276 kb/s
Video
ID                                       : 1
Format                                   : AVC
Format/Info                              : Advanced Video Codec
Format profile                           : [email protected]
Format settings                          : CABAC / 2 Ref Frames
Format settings, CABAC                   : Yes
Format settings, RefFrames               : 2 frames
Codec ID                                 : avc1
Codec ID/Info                            : Advanced Video Coding
Duration                                 : 2 h 22 min
Duration_FirstFrame                      : -67 ms
Bit rate                                 : 1 103 kb/s
Width                                    : 1 280 pixels
Height                                   : 720 pixels
Display aspect ratio                     : 16:9
Frame rate mode                          : Variable
Frame rate                               : 29.970 FPS
Minimum frame rate                       : 9.990 FPS
Maximum frame rate                       : 29.970 FPS
Color space                              : YUV
Chroma subsampling                       : 4:2:0
Bit depth                                : 8 bits
Scan type                                : Progressive
Bits/(Pixel*Frame)                       : 0.040
Stream size                              : 1.10 GiB (87%)
Writing library                          : x264 core 112 r1834 a51816a
Audio
ID                                       : 2
Format                                   : AAC
Format/Info                              : Advanced Audio Codec
Format profile                           : LC
Codec ID                                 : mp4a-40-2
Duration                                 : 2 h 22 min
Bit rate mode                            : Variable
Bit rate                                 : 165 kb/s
Channel(s)                               : 2 channels
Channel positions                        : Front: L R
Sampling rate                            : 48.0 kHz
Frame rate                               : 46.875 FPS (1024 SPF)
Compression mode                         : Lossy
Stream size                              : 168 MiB (13%)
[/code]








Category:Movies > Bollywood
Lang:Hindi
Total Size:1.27 GB
Info Hash:63a9fa357a6ae159ef73a055f439c27db166323e
Added By:Unknown
Date Added:10-01-2019 19:34:45
Views:917
Hits:52

Download Torrent

Ratings:Not Yet Rated (Log in to rate it)


Tracker:
udp://tracker.opentrackr.org:1337/announce


File List: 


Comments

No comments still posted

Powered by 10 Hamsters v2-svn -|- Page Generated In 5.224709 secs.
-|- RSS FEED
Theme By: Nikkbu