[Login] or [Signup]
Login
Username:
Password:
[Signup]
[Recover Account]


Poll


You must be logged in to view polls



Torrent Details For "Ship.of.Theseus.2014.1080p.Bluray.AC3.x264.MAVI"

Ship.of.Theseus.2014.1080p.Bluray.AC3.x264.MAVI

Download this torrent | Magnet Download
Health:
Seeds: 2
Leechers: 5
Completed:
Last Checked: 10-01-2019 03:56:30
External Torrent
Update Stats
Download Magnet


Poster
No poster


Watch-Free-HD     Download

Details
Name:Ship.of.Theseus.2014.1080p.Bluray.AC3.x264.MAVI
Description:

Quote:

[size=25]Movie Encoded From Full Bluray Disk
&
Only For Quality Lovers
[/size]

[size=25]Ship of Theseus.2014.BD50.Untouched Bluray.Eagle.DRs (Thanks )


Audio Language Hindi  English
[/size]




[size=25]Ship.of.Theseus.2014.1080p.Bluray.AC3.x264.MAVI[/size]

Video
ID                                       : 1
Format                                   : AVC
Format/Info                              : Advanced Video Codec
Format profile                           : [email protected]
Format settings                          : CABAC / 5 Ref Frames
Format settings, CABAC                   : Yes
Format settings, RefFrames               : 5 frames
Codec ID                                 : V_MPEG4/ISO/AVC
Duration                                 : 2 h 24 min
Bit rate                                 : 4 500 kb/s
Width                                    : 1 920 pixels
Height                                   : 816 pixels
Display aspect ratio                     : 2.35:1
Frame rate mode                          : Constant
Frame rate                               : 23.976 (24000/1001) FPS
Color space                              : YUV
Chroma subsampling                       : 4:2:0
Bit depth                                : 8 bits
Scan type                                : Progressive
Bits/(Pixel*Frame)                       : 0.120
Stream size                              : 4.55 GiB (91%)
Writing library                          : x264 core 157 r2935 545de2f
Language                                 : Hindi
Default                                  : Yes
Forced                                   : No
Color range                              : Limited
Color primaries                          : Generic film
Transfer characteristics                 : BT.709
Matrix coefficients                      : BT.709

Audio
ID                                       : 2
Format                                   : AC-3
Format/Info                              : Audio Coding 3
Codec ID                                 : A_AC3
Duration                                 : 2 h 24 min
Bit rate mode                            : Constant
Bit rate                                 : 448 kb/s
Channel(s)                               : 6 channels
Channel positions                        : Front: L C R, Side: L R, LFE
Sampling rate                            : 48.0 kHz
Frame rate                               : 31.250 FPS (1536 SPF)
Bit depth                                : 16 bits
Compression mode                         : Lossy
Stream size                              : 464 MiB (9%)
Language                                 : HinGlish
Service kind                             : Complete Main
Default                                  : Yes
Forced                                   : No

Text
ID                                       : 3
Format                                   : PGS
Codec ID                                 : S_HDMV/PGS
Codec ID/Info                            : Picture based subtitle format used on BDs/HD-DVDs
Duration                                 : 2 h 14 min
Bit rate                                 : 19.8 kb/s
Count of elements                        : 2517
Stream size                              : 19.0 MiB (0%)
Language                                 : English
Default                                  : Yes
Forced                                   : No

Menu
00:00:00.000                             : en:00:00:00.000
00:00:42.000                             : en:00:00:42.000
00:37:55.064                             : en:00:37:55.064
01:25:33.545                             : en:01:25:33.545






                       

Category:Movies > Bollywood
Lang:Hindi
Total Size:5.10 GB
Info Hash:3600b8e1b9ac45dcfe5fcb7aabd54e27c8b99801
Added By:Unknown
Date Added:09-01-2019 18:21:50
Views:965
Hits:36

Download Torrent

Ratings:Not Yet Rated (Log in to rate it)


Tracker:
UDP://TRACKER.LEECHERS-PARADISE.ORG:6969/ANNOUNCE


File List: 


Comments

No comments still posted

Powered by 10 Hamsters v2-svn -|- Page Generated In 1.874947 secs.
-|- RSS FEED
Theme By: Nikkbu