[Login] or [Signup]
Login
Username:
Password:
[Signup]
[Recover Account]


Poll


You must be logged in to view polls



Torrent Details For "J.D. (2017) Hindi 720p HDRip x264 AAC Exclusive BabaHD"

J.D. (2017) Hindi 720p HDRip x264 AAC Exclusive BabaHD

Download this torrent | Magnet Download
Health:
Seeds: 19
Leechers: 0
Completed:
Last Checked: 12-02-2019 08:25:41
External Torrent
Update Stats
Download Magnet


Poster


iMDB
Title: J.D.
Year: 2017
Votes: 12
Rating: 6.5/10
Language: Hindi
Director: Shailendra Pandey
Writing By: Shailendra Pandey,Kumar Vijay,
Produced By: Anju Pandey,
Music: Jaan Nissar Lone Monty Sharma
Cast:
Rina Charaniya as Melini
Arvind Gaur as
Jasveer Kaur as
Govind Namdev as
Vedita Pratap Singh as
Aman Verma as


Watch-Free-HD     Download

Details
Name:J.D. (2017) Hindi 720p HDRip x264 AAC Exclusive BabaHD
Description:
J.D. (2017) Hindi 720p HDRip x264 AAC Exclusive BabaHD

 BabaHD.Com



Exclusive By   BabaHD.Com

General
Complete name                  : JD (2017)
Format                         : MPEG-4
Format profile                 : Base Media
Codec ID                       : isom (isom/iso2/avc1/mp41)
File size                      : 1.05 GiB
Duration                       : 1 h 56 min

Video
ID                             : 1
Format                         : AVC
Format/Info                    : Advanced Video Codec
Format profile                 : [email protected]
Format settings, CABAC         : Yes
Format settings, RefFrames     : 5 frames
Codec ID                       : avc1
Codec ID/Info                  : Advanced Video Coding
Duration                       : 1 h 56 min
Width                          : 1 280 pixels
Height                         : 544 pixels
Display aspect ratio           : 2.35:1
Frame rate mode                : Constant
Frame rate                     : 30.000 FPS
Color space                    : YUV
Chroma subsampling             : 4:2:0
Bit depth                      : 8 bits
Scan type                      : Progressive
Bits/(Pixel*Frame)             : 0.055
Stream size                    : 961 MiB (89%)


Audio
ID                             : 2
Format                         : AAC
Format/Info                    : Advanced Audio Codec
Format profile                 : LC
Duration                       : 1 h 56 min
Bit rate mode                  : Constant
Bit rate                       : 129 kb/s
Channel(s)                     : 2 channels
Channel positions              : Front: L R
Sampling rate                  : 48.0 kHz
Frame rate                     : 46.875 FPS (1024 SPF)
Compression mode               : Lossy
Stream size                    : 108 MiB (10%)
Title                          : Stereo
Language                       : Hindi
Default                        : Yes




SCREENS







Category:Movies > Bollywood
Lang:Hindi
Total Size:1.05 GB
Info Hash:d258e9aafd9fcff0592c95b91c68ede401325eae
Added By:BIG4UMOVIES
Date Added:04-01-2019 17:42:03
Views:6,171
Hits:450

Download Torrent

Ratings:Not Yet Rated (Log in to rate it)


Tracker:
udp://tracker.coppersurfer.tk:6969/announce


File List: 


Comments

No comments still posted

Powered by 10 Hamsters v2-svn -|- Page Generated In 0.699461 secs.
-|- RSS FEED
Theme By: Nikkbu