[Login] or [Signup]
Login
Username:
Password:
[Signup]
[Recover Account]


Poll


You must be logged in to view polls



Torrent Details For "Alanis (2017) 1080p WEB-DL H264 AAC DDR"

Alanis (2017) 1080p WEB-DL H264 AAC DDR

Download this torrent | Magnet Download
Health:
Seeds: 57
Leechers: 75
Completed: 55,624 
Last Checked: 05-01-2019 13:34:12
External Torrent
Update Stats
Download Magnet


Poster


Watch-Free-HD     Download

Details
Name:Alanis (2017) 1080p WEB-DL H264 AAC DDR
Description:
 

Alanis (2017)1080p WEB-DL MultiSub DDR


Plot: A young Buenos Aires mother finds employment as a *censored* worker and struggles to live under the same laws that are supposed to protect her.
Actors: Sofía Gala, Dante Della Paolera, Dana Basso, Silvina Sabater
Awards: 3 wins & 5 nominations.
Country: Argentina

Mediainfo
===================

General
Complete name                            : E:Alanis (2017)1080p WEB-DL MultiSub DDR.mp4
Format                                   : MPEG-4
Format profile                           : Base Media
Codec ID                                 : isom (isom/iso2/avc1/mp41)
File size                                : 2.04 GiB
Duration                                 : 1 h 22 min
Overall bit rate mode                    : Constant
Overall bit rate                         : 3 525 kb/s
Writing application                      : ShanaEncoder

Video
ID                                       : 1
Format                                   : AVC
Format/Info                              : Advanced Video Codec
Format profile                           : [email protected]
Format settings                          : 1 Ref Frames
Format settings, CABAC                   : No
Format settings, RefFrames               : 1 frame
Codec ID                                 : avc1
Codec ID/Info                            : Advanced Video Coding
Duration                                 : 1 h 22 min
Bit rate mode                            : Constant
Bit rate                                 : 3 500 kb/s
Width                                    : 1 920 pixels
Height                                   : 1 080 pixels
Display aspect ratio                     : 16:9
Frame rate mode                          : Constant
Frame rate                               : 23.976 (24000/1001) FPS
Color space                              : YUV
Chroma subsampling                       : 4:2:0
Bit depth                                : 8 bits
Scan type                                : Progressive
Bits/(Pixel*Frame)                       : 0.070
Stream size                              : 1.98 GiB (97%)
Codec configuration box                  : avcC

Audio
ID                                       : 2
Format                                   : AAC LC
Format/Info                              : Advanced Audio Codec Low Complexity
Codec ID                                 : mp4a-40-2
Duration                                 : 1 h 22 min
Bit rate mode                            : Constant
Bit rate                                 : 96.0 kb/s
Channel(s)                               : 2 channels
Channel layout                           : L R
Sampling rate                            : 48.0 kHz
Frame rate                               : 46.875 FPS (1024 SPF)
Compression mode                         : Lossy
Stream size                              : 56.9 MiB (3%)
Default                                  : Yes
Alternate group                          : 1

SCERNSHOTS
==================

 

 

 

 

:love  :love  :love  :love  :love  :love  :love  :love  :love  :love  :love  :love  :love  :love  :love  :love  :love  :love  :love  :love  :love  :love  :love  :love  :love  :love  :love  :love  :love  :love  :love  :love  :love  :love  :love  :love  :love  :love  :love
Category:Movies > WEB-HD
Lang:English  English
Total Size:2.04 GB
Info Hash:c90e922843cc26ff79f6b239613498b63304a305
Added By:RAFI
Date Added:03-01-2019 11:53:14
Views:118
Hits:37

Download Torrent

Ratings:Not Yet Rated (Log in to rate it)

  


Tracker:
udp://tracker.coppersurfer.tk:80/announce

This Torrent also has backup trackers
URLSeedersLeechersCompleted
http://share.camoe.cn:8080/announce000
http://open.acgnxtracker.com:443/announce000
http://tracker.tfile.co:80/announce000
http://retracker.spb.ru:80/announce000
http://open.acgnxtracker.com/announce12595
http://bt.acg.gg:1578/announce000
http://tracker3.itzmx.com:8080/announce21064


File List: 


Comments

No comments still posted

Powered by 10 Hamsters v2-svn -|- Page Generated In 0.617203 secs.
-|- RSS FEED
Theme By: Nikkbu