[Login] or [Signup]
Login
Username:
Password:
[Signup]
[Recover Account]


Poll


You must be logged in to view polls



Torrent Details For "Morgan 2016 720p BluRay x264 Dual Audio [Hindi DD 5.1 - English 2.0] ESub [MW]"

Morgan 2016 720p BluRay x264 Dual Audio [Hindi DD 5.1 - English 2.0] ESub [MW]

Download this torrent | Magnet Download
Health:
Seeds: 33
Leechers: 155
Completed: 15 
Last Checked: 05-12-2018 08:07:22
External Torrent
Update Stats
Download Magnet


Poster
No poster


Watch-Free-HD     Download

Details
Name:Morgan 2016 720p BluRay x264 Dual Audio [Hindi DD 5.1 - English 2.0] ESub [MW]
Description:

 

General
Format : Matroska
Format version : Version 4 / Version 2
File size : 1.09 GiB
Duration : 1 h 31 min
Overall bit rate : 1 702 kb/s

Video
ID : 1
Format : AVC
Format/Info : Advanced Video Codec
Format profile : [email protected]
Format settings : CABAC / 4 Ref Frames
Format settings, CABAC : Yes
Format settings, RefFrames : 4 frames
Codec ID : V_MPEG4/ISO/AVC
Duration : 1 h 31 min
Bit rate : 1 200 kb/s
Width : 1 280 pixels
Height : 536 pixels
Display aspect ratio : 2.40:1
Frame rate mode : Constant
Frame rate : 23.976 (24000/1001) FPS
Color space : YUV
Chroma subsampling : 4:2:0
Bit depth : 8 bits
Scan type : Progressive
Bits/(Pixel*Frame) : 0.073
Stream size : 776 MiB (69%)
Writing library : x264 core 155 r2901 7d0ff22
Default : Yes
Forced : No

Audio #1
ID : 2
Format : AC-3
Format/Info : Audio Coding 3
Codec ID : A_AC3
Duration : 1 h 31 min
Bit rate mode : Constant
Bit rate : 384 kb/s
Channel(s) : 6 channels
Channel positions : Front: L C R, Side: L R, LFE
Sampling rate : 48.0 kHz
Frame rate : 31.250 FPS (1536 SPF)
Bit depth : 16 bits
Compression mode : Lossy
Stream size : 252 MiB (23%)
Language : Hindi
Service kind : Complete Main
Default : Yes
Forced : No

Audio #2
ID : 3
Format : AAC
Format/Info : Advanced Audio Codec
Format profile : LC
Codec ID : A_AAC-2
Duration : 1 h 31 min
Bit rate : 128 kb/s
Channel(s) : 2 channels
Channel positions : Front: L R
Sampling rate : 48.0 kHz
Frame rate : 46.875 FPS (1024 SPF)
Compression mode : Lossy
Stream size : 84.3 MiB (8%)
Language : English
Default : No
Forced : No

Text
ID : 4
Format : VobSub
Muxing mode : zlib
Codec ID : S_VOBSUB
Codec ID/Info : Picture based subtitle format used on DVDs
Duration : 1 h 28 min
Bit rate : 6 006 b/s
Count of elements : 1384
Stream size : 3.80 MiB (0%)
Language : English
Default : Yes
Forced : No

Click To View Image

 http://pichub.site/image/cUFeb
 http://pichub.site/image/cUeHT
 http://pichub.site/image/cUbxV
 http://pichub.site/image/cUqDN
 http://pichub.site/image/cv4mD
 http://pichub.site/image/cvfnZ


Category:Movies > Hollywood Dub
Lang:Hindi
Total Size:1.09 GB
Info Hash:ddd79fd994d5fa7f3c2dcec33fb271d65d3d8467
Added By:Freaky
Date Added:05-12-2018 08:07:07
Views:1,062
Hits:64

Download Torrent

Ratings:Not Yet Rated (Log in to rate it)


Tracker:
udp://tracker.coppersurfer.tk:6969/announce


File List: 


Comments

No comments still posted

Powered by 10 Hamsters v2-svn -|- Page Generated In 0.717511 secs.
-|- RSS FEED
Theme By: Nikkbu