[Login] or [Signup]
Login
Username:
Password:
[Signup]
[Recover Account]


Poll


You must be logged in to view polls



Torrent Details For "2012 (2009) 720p BluRay x264 DTS [Dual Audio] Hindi+English { TaRa }.mkv"

2012 (2009) 720p BluRay x264 DTS [Dual Audio] Hindi+English { TaRa }.mkv

Download this torrent | Magnet Download
Health:
Seeds: 9
Leechers: 12
Completed:
Last Checked: 29-01-2019 10:26:09
External Torrent
Update Stats
Download Magnet


Poster


Watch-Free-HD     Download

Details
Name:2012 (2009) 720p BluRay x264 DTS [Dual Audio] Hindi+English { TaRa }.mkv
Description:

Quote:

2012 (2009) 720p BluRay x264 DTS [Dual Audio] Hindi+English { TaRa }.mkv


===================================================================
General
Complete name               : 2012 (2009) 720p BluRay x264 DTS [Dual Audio] Hindi+English { TaRa }.mkv
Format                      : Matroska
Format version              : Version 4 / Version 2
File size                   : 3.36 GiB
Duration                    : 2 h 37 min
Overall bit rate            : 3 047 kb/s
===================================================================
Video
ID                          : 1
Format                      : AVC
Format/Info                 : Advanced Video Codec
Format profile              : [email protected]
Format settings, CABAC      : Yes
Format settings, ReFrames   : 4 frames
Codec ID                    : V_MPEG4/ISO/AVC
Duration                    : 2 h 37 min
Bit rate                    : 1 000 kb/s
Width                       : 1 280 pixels
Height                      : 544 pixels
Display aspect ratio        : 2.35:1
Frame rate mode             : Constant
Frame rate                  : 23.976 (24000/1001) FPS
Color space                 : YUV
Chroma subsampling          : 4:2:0
Bit depth                   : 8 bits
Scan type                   : Progressive
Bits/(Pixel*Frame)          : 0.060
Stream size                 : 1.10 GiB (33%)
Title                       : .....::::: TaRa :::::....
Language                    : Hindi
Default                     : Yes
Forced                      : No
===================================================================
Audio #1
ID                          : 2
Format                      : DTS
Format/Info                 : Digital Theater Systems
Mode                        : 16
Format settings, Endianness : Big
Codec ID                    : A_DTS
Duration                    : 2 h 37 min
Bit rate mode               : Constant
Bit rate                    : 1 025 kb/s
Channel(s)                  : 6 channels
Channel positions           : Front: L C R, Side: L R, LFE
Sampling rate               : 44.1 kHz
Frame rate                  : 86.133 FPS (512 spf)
Bit depth                   : 16 bits
Compression mode            : Lossy
Delay relative to video     : -83 ms
Stream size                 : 1.13 GiB (34%)
Title                       : 2012 Hindi .....::::: TaRa :::::....
Language                    : Hindi
Default                     : Yes
Forced                      : No
===================================================================
Audio #2
ID                          : 3
Format                      : DTS
Format/Info                 : Digital Theater Systems
Mode                        : 16
Format settings, Endianness : Big
Codec ID                    : A_DTS
Duration                    : 2 h 37 min
Bit rate mode               : Constant
Bit rate                    : 1 025 kb/s
Channel(s)                  : 6 channels
Channel positions           : Front: L C R, Side: L R, LFE
Sampling rate               : 44.1 kHz
Frame rate                  : 86.133 FPS (512 spf)
Bit depth                   : 16 bits
Compression mode            : Lossy
Delay relative to video     : -83 ms
Stream size                 : 1.13 GiB (34%)
Title                       : 2012  English .....::::: TaRa :::::....
Language                    : English
Default                     : No
Forced                      : No
===================================================================
































Category:Movies > Hollywood Dub
Lang:English  English
Total Size:3.36 GB
Info Hash:d3c2f5cc48db937fc69447ba4114028b778e90ad
Added By:SkTaRa
Date Added:05-04-2017 03:10:43
Views:974
Hits:228

Download Torrent

Ratings:Not Yet Rated (Log in to rate it)


Tracker:
udp://tracker.openbittorrent.com:80/announce

This Torrent also has backup trackers
URLSeedersLeechersCompleted
http://www.skyts.net:6969/announce000
http://www.opentrackr.org/announce000
http://mgtracker.org:2710/announce110
http://5.79.83.193:2710/announce020
http://109.121.134.121:1337/announce000


File List: 


Comments

No comments still posted

Powered by 10 Hamsters v2-svn -|- Page Generated In 2.708925 secs.
-|- RSS FEED
Theme By: Nikkbu