[Login] or [Signup]
Login
Username:
Password:
[Signup]
[Recover Account]


Poll


You must be logged in to view polls



Torrent Details For "Avatar 3D Anaglyph ( 2009 ) 720p BluRay x264 DTS [Dual Audio] Hindi+English { TaRa }"

Avatar 3D Anaglyph ( 2009 ) 720p BluRay x264 DTS [Dual Audio] Hindi+English { TaRa }

Download this torrent | Magnet Download
Health:
Seeds: 0
Leechers: 10
Completed:
Last Checked: 10-12-2018 16:25:36
External Torrent
Update Stats
Download Magnet


Poster


Watch-Free-HD     Download

Details
Name:Avatar 3D Anaglyph ( 2009 ) 720p BluRay x264 DTS [Dual Audio] Hindi+English { TaRa }
Description:

Quote:

2012 (2009) 720p BluRay x264 DTS [Dual Audio] Hindi+English { TaRa }.mkv

Anaglyph 3d red and cyan glass for 3D photography and 3d movies. 3D Glasses used for 3d movies, viewing 3D Print, magazines, comic books, Anaglyph photos on the internet and publications. Also great for 3D TV, movies and games.. The following 3d films are viewable with our Plasstic 3D Glasses 1) Journey 3d 2) Haunted Castle 3d 3) Buffy 3d Musical 4) Shark Boy Lava Girl 5) Jaws 6) My Bloody Valentine 7) Journey to the earth 8) Coraline 3d 9) Final Destination.

===================================================================
General
Complete name               : Avatar 3D Anaglyph ( 2009 ) 720p BluRay x264 DTS [Dual Audio] Hindi+English { TaRa }.mkv
Format                      : Matroska
Format version              : Version 4 / Version 2
File size                   : 3.63 GiB
Duration                    : 2 h 35 min
Overall bit rate mode       : Variable
Overall bit rate            : 3 355 kb/s
===================================================================
Video
ID                          : 1
Format                      : AVC
Format/Info                 : Advanced Video Codec
Format profile              : [email protected]
Format settings, CABAC      : Yes
Format settings, ReFrames   : 3 frames
Frame mode                  : Frame doubling
Codec ID                    : V_MPEG4/ISO/AVC
Duration                    : 2 h 35 min
Bit rate mode               : Variable
Bit rate                    : 1 302 kb/s
Maximum bit rate            : 40.0 Mb/s
Width                       : 1 280 pixels
Height                      : 720 pixels
Display aspect ratio        : 16:9
Frame rate mode             : Constant
Frame rate                  : 25.000 FPS
Color space                 : YUV
Chroma subsampling          : 4:2:0
Bit depth                   : 8 bits
Scan type                   : Progressive
Bits/(Pixel*Frame)          : 0.057
Stream size                 : 1.41 GiB (39%)
Title                       : Avatar 3D Anaglyph .....::::: TaRa :::::....
Language                    : English
Default                     : Yes
Forced                      : No
===================================================================
Audio #1
ID                          : 2
Format                      : DTS
Format/Info                 : Digital Theater Systems
Mode                        : 16
Format settings, Endianness : Big
Codec ID                    : A_DTS
Duration                    : 2 h 35 min
Bit rate mode               : Constant
Bit rate                    : 1 025 kb/s
Channel(s)                  : 6 channels
Channel positions           : Front: L C R, Side: L R, LFE
Sampling rate               : 44.1 kHz
Frame rate                  : 86.133 FPS (512 spf)
Bit depth                   : 16 bits
Compression mode            : Lossy
Stream size                 : 1.11 GiB (31%)
Title                       : Avatar 3D Anaglyph Hindi
Language                    : Hindi
Default                     : Yes
Forced                      : No
===================================================================
Audio #2
ID                          : 3
Format                      : DTS
Format/Info                 : Digital Theater Systems
Mode                        : 16
Format settings, Endianness : Big
Codec ID                    : A_DTS
Duration                    : 2 h 35 min
Bit rate mode               : Constant
Bit rate                    : 1 025 kb/s
Channel(s)                  : 6 channels
Channel positions           : Front: L C R, Side: L R, LFE
Sampling rate               : 44.1 kHz
Frame rate                  : 86.133 FPS (512 spf)
Bit depth                   : 16 bits
Compression mode            : Lossy
Stream size                 : 1.11 GiB (31%)
Title                       : Avatar 3D Anaglyph  English
Language                    : English
Default                     : No
Forced                      : No
===================================================================
























Category:Movies > Hollywood Dub
Lang:English  English
Total Size:3.63 GB
Info Hash:dee5abe1042ed7f7e73176464bc1c27b48d617b6
Added By:SkTaRa
Date Added:05-04-2017 03:09:22
Views:1,318
Hits:216

Download Torrent

Ratings:Not Yet Rated (Log in to rate it)


Tracker:
udp://tracker.openbittorrent.com:80/announce

This Torrent also has backup trackers
URLSeedersLeechersCompleted
http://www.skyts.net:6969/announce000
http://www.opentrackr.org/announce000
http://mgtracker.org:2710/announce010
http://5.79.83.193:2710/announce010
http://109.121.134.121:1337/announce000


File List: 


Comments

No comments still posted

Powered by 10 Hamsters v2-svn -|- Page Generated In 1.827873 secs.
-|- RSS FEED
Theme By: Nikkbu