[Login] or [Signup]
Login
Username:
Password:
[Signup]
[Recover Account]


Poll


You must be logged in to view polls



Torrent Details For "Anacondas The Hunt for the Blood Orchid ( 2004 ) Hindi Blu-Ray 720p x264 DTS {TaRa }.mkv"

Anacondas The Hunt for the Blood Orchid ( 2004 ) Hindi Blu-Ray 720p x264 DTS {TaRa }.mkv

Download this torrent | Magnet Download
Health:
Seeds: 0
Leechers: 0
Completed:
Last Checked: 13-12-2018 05:49:23
External Torrent
Update Stats
Download Magnet


Poster


Watch-Free-HD     Download

Details
Name:Anacondas The Hunt for the Blood Orchid ( 2004 ) Hindi Blu-Ray 720p x264 DTS {TaRa }.mkv
Description:

Quote:

Anacondas The Hunt for the Blood Orchid ( 2004 ) Hindi  Blu-Ray 720p x264 DTS  {TaRa }.mkv


===================================================================
General
Complete name               : Anacondas The Hunt for the Blood Orchid ( 2004 ) Hindi  Blu-Ray 720p x264 DTS  {TaRa }.mkv
Format                      : Matroska
Format version              : Version 4 / Version 2
File size                   : 2.27 GiB
Duration                    : 1 h 32 min
Overall bit rate mode       : Variable
Overall bit rate            : 3 505 kb/s
===================================================================
Video
ID                          : 1
Format                      : AVC
Format/Info                 : Advanced Video Codec
Format profile              : [email protected]
Format settings, CABAC      : Yes
Format settings, ReFrames   : 3 frames
Codec ID                    : V_MPEG4/ISO/AVC
Duration                    : 1 h 32 min
Bit rate mode               : Variable
Bit rate                    : 2 479 kb/s
Maximum bit rate            : 14.0 Mb/s
Width                       : 1 280 pixels
Height                      : 720 pixels
Display aspect ratio        : 16:9
Frame rate mode             : Constant
Frame rate                  : 25.000 FPS
Original frame rate         : 50.000 FPS
Color space                 : YUV
Chroma subsampling          : 4:2:0
Bit depth                   : 8 bits
Scan type                   : Progressive
Bits/(Pixel*Frame)          : 0.108
Stream size                 : 1.60 GiB (71%)
Title                       : .....::::: TaRa :::::.....
Language                    : Hindi
Default                     : Yes
Forced                      : No
===================================================================
Audio
ID                          : 2
Format                      : DTS
Format/Info                 : Digital Theater Systems
Mode                        : 16
Format settings, Endianness : Big
Codec ID                    : A_DTS
Duration                    : 1 h 32 min
Bit rate mode               : Constant
Bit rate                    : 1 025 kb/s
Channel(s)                  : 6 channels
Channel positions           : Front: L C R, Side: L R, LFE
Sampling rate               : 44.1 kHz
Frame rate                  : 86.133 FPS (512 spf)
Bit depth                   : 16 bits
Compression mode            : Lossy
Stream size                 : 680 MiB (29%)
Title                       : .....::::: TaRa :::::.....
Language                    : Hindi
Default                     : Yes
Forced                      : No
===================================================================



































Category:Movies > Hollywood Dub
Lang:Hindi
Total Size:2.27 GB
Info Hash:6119f5c8cfa40a619e95b1ddf4186054819e4bfd
Added By:SkTaRa
Date Added:05-04-2017 03:05:35
Views:900
Hits:137

Download Torrent

Ratings:Not Yet Rated (Log in to rate it)


Tracker:
udp://tracker.openbittorrent.com:80/announce

This Torrent also has backup trackers
URLSeedersLeechersCompleted
http://www.skyts.net:6969/announce000
http://www.opentrackr.org/announce000
http://mgtracker.org:2710/announce012
http://5.79.83.193:2710/announce010
http://109.121.134.121:1337/announce000


File List: 


Comments

No comments still posted

Powered by 10 Hamsters v2-svn -|- Page Generated In 3.193115 secs.
-|- RSS FEED
Theme By: Nikkbu