[Login] or [Signup]
Login
Username:
Password:
[Signup]
[Recover Account]


Poll


You must be logged in to view polls



Torrent Details For "The Legend of Tarzan (2016) BluRay1080p Dual Audio English,Hindi AC3 5.1 { TaRa }.mkv"

The Legend of Tarzan (2016) BluRay1080p Dual Audio English,Hindi AC3 5.1 { TaRa }.mkv

Download this torrent | Magnet Download
Health:
Seeds: 6
Leechers: 38
Completed: 5,629 
Last Checked: 19-09-2017 22:47:46
External Torrent
Update Stats
Download Magnet


Poster


Watch-Free-HD     Download

Details
Name:The Legend of Tarzan (2016) BluRay1080p Dual Audio English,Hindi AC3 5.1 { TaRa }.mkv
Description:

Quote:

The Legend of Tarzan (2016) BluRay1080p Dual Audio English,Hindi AC3 5.1 { TaRa }.mkv


====================================================================
General
Complete name : The Legend of Tarzan (2016) BluRay1080p Dual Audio English,Hindi AC3 5.1 { TaRa }.mkv
Format : Matroska
Format version : Version 4 / Version 2
File size : 3.56 GiB
Duration : 1h 49mn
Overall bit rate mode : Variable
Overall bit rate : 4 637 Kbps
====================================================================
Video
ID : 1
Format : AVC
Format/Info : Advanced Video Codec
Format profile : [email protected]
Format settings, CABAC : Yes
Format settings, ReFrames : 5 frames
Codec ID : V_MPEG4/ISO/AVC
Duration : 1h 49mn
Bit rate mode : Variable
Bit rate : 3 789 Kbps
Maximum bit rate : 62.5 Mbps
Width : 1 920 pixels
Height : 800 pixels
Display aspect ratio : 2.40:1
Frame rate mode : Constant
Frame rate : 23.976 (24000/1001) fps
Color space : YUV
Chroma subsampling : 4:2:0
Bit depth : 8 bits
Scan type : Progressive
Bits/(Pixel*Frame) : 0.103
Stream size : 2.87 GiB (80%)
Title : The Legend of Tarzan (2016) BluRay1080p Dual Audio English,Hindi 5.1 { TaRa }
Language : English
Default : Yes
Forced : No
====================================================================
Audio #1
ID : 2
Format : AC-3
Format/Info : Audio Coding 3
Mode extension : CM (complete main)
Format settings, Endianness : Big
Codec ID : A_AC3
Duration : 1h 49mn
Bit rate mode : Constant
Bit rate : 448 Kbps
Channel(s) : 6 channels
Channel positions : Front: L C R, Side: L R, LFE
Sampling rate : 48.0 KHz
Frame rate : 31.250 fps (1536 spf)
Compression mode : Lossy
Stream size : 352 MiB (10%)
Title : Hindi AC3 5.1 { TaRa }
Language : Hindi
Default : Yes
Forced : No
===================================================================
Audio #2
ID : 3
Format : AC-3
Format/Info : Audio Coding 3
Mode extension : CM (complete main)
Format settings, Endianness : Big
Codec ID : A_AC3
Duration : 1h 49mn
Bit rate mode : Constant
Bit rate : 448 Kbps
Channel(s) : 6 channels
Channel positions : Front: L C R, Side: L R, LFE
Sampling rate : 48.0 KHz
Frame rate : 31.250 fps (1536 spf)
Compression mode : Lossy
Stream size : 352 MiB (10%)
Title : English AC3 5.1 { TaRa }
Language : English
Default : No
Forced : No
===================================================================
Text
ID : 4
Format : PGS
Muxing mode : zlib
Codec ID : S_HDMV/PGS
Codec ID/Info : Picture based subtitle format used on BDs/HD-DVDs
Duration : 1h 47mn
Bit rate : 6 735 bps
Count of elements : 1880
Stream size : 5.19 MiB (0%)
Title : Subtitales English { TaRa }
Language : English
Default : No
Forced : No
===================================================================
























Category:Movies > Hollywood Dub
Lang:English  English
Total Size:3.56 GB
Info Hash:3f2d8697a923704426c930bf159a4c83dd34a834
Added By:SkTaRa
Date Added:03-04-2017 17:06:21
Views:1,035
Hits:202

Download Torrent

Ratings:Not Yet Rated (Log in to rate it)


Tracker:
udp://tracker.openbittorrent.com:80/announce

This Torrent also has backup trackers
URLSeedersLeechersCompleted
http://www.skyts.net:6969/announce000
http://www.opentrackr.org/announce000
http://mgtracker.org:2710/announce000
http://5.79.83.193:2710/announce0334
http://109.121.134.121:1337/announce000


File List: 


Comments

No comments still posted

Powered by 10 Hamsters v2-svn -|- Page Generated In 2.000294 secs.
-|- RSS FEED
Theme By: Nikkbu