[Login] or [Signup]
Login
Username:
Password:
[Signup]
[Recover Account]


Poll


You must be logged in to view polls



Torrent Details For "Haider (2014) Hindi 720p Blu-Ray x264 DTS { TaRa }.mkv"

Haider (2014) Hindi 720p Blu-Ray x264 DTS { TaRa }.mkv

Download this torrent | Magnet Download
Health:
Seeds: 0
Leechers: 0
Completed:
Last Checked: 14-12-2018 06:35:47
External Torrent
Update Stats
Download Magnet


Poster


Watch-Free-HD     Download

Details
Name:Haider (2014) Hindi 720p Blu-Ray x264 DTS { TaRa }.mkv
Description:
  Haider (2014) Hindi 720p Blu-Ray x264 DTS { TaRa }.mkv


===================================================================
General
Complete name               : Haider (2014) Hindi 720p Blu-Ray x264 DTS { TaRa }.mkv
Format                      : Matroska
Format version              : Version 4 / Version 2
File size                   : 2.28 GiB
Duration                    : 2 h 41 min
Overall bit rate            : 2 024 kb/s
===================================================================
Video
ID                          : 1
Format                      : AVC
Format/Info                 : Advanced Video Codec
Format profile              : [email protected]
Format settings, CABAC      : Yes
Format settings, ReFrames   : 5 frames
Codec ID                    : V_MPEG4/ISO/AVC
Duration                    : 2 h 41 min
Bit rate                    : 996 kb/s
Width                       : 1 280 pixels
Height                      : 544 pixels
Display aspect ratio        : 2.35:1
Frame rate mode             : Variable
Frame rate                  : 23.976 (24000/1001) FPS
Color space                 : YUV
Chroma subsampling          : 4:2:0
Bit depth                   : 8 bits
Scan type                   : Progressive
Bits/(Pixel*Frame)          : 0.060
Stream size                 : 1.12 GiB (49%)
Title                       : .....::::: TaRa :::::....
Language                    : Hindi
Default                     : Yes
Forced                      : No
===================================================================
Audio
ID                          : 2
Format                      : DTS
Format/Info                 : Digital Theater Systems
Mode                        : 16
Format settings, Endianness : Big
Codec ID                    : A_DTS
Duration                    : 2 h 41 min
Bit rate mode               : Constant
Bit rate                    : 1 025 kb/s
Channel(s)                  : 6 channels
Channel positions           : Front: L C R, Side: L R, LFE
Sampling rate               : 44.1 kHz
Frame rate                  : 86.133 FPS (512 spf)
Bit depth                   : 16 bits
Compression mode            : Lossy
Stream size                 : 1.16 GiB (51%)
Title                       : .....::::: TaRa :::::....
Language                    : Hindi
Default                     : Yes
Forced                      : No
===================================================================


                                               











Category:Movies > Bollywood
Lang:Hindi
Total Size:2.28 GB
Info Hash:f871b8a44cca2bc92d570751e7a42c9bcc4176a0
Added By:SkTaRa
Date Added:30-03-2017 15:39:04
Views:1,051
Hits:250

Download Torrent

Ratings:Not Yet Rated (Log in to rate it)

  


Tracker:
udp://tracker.ccc.de:80/announce

This Torrent also has backup trackers
URLSeedersLeechersCompleted
http://tracker.dler.org:6969/announce000
http://ipv4.tracker.harry.lu:80/announce010


File List: 


Comments

No comments still posted

Powered by 10 Hamsters v2-svn -|- Page Generated In 3.378759 secs.
-|- RSS FEED
Theme By: Nikkbu