[Login] or [Signup]
Login
Username:
Password:
[Signup]
[Recover Account]


Poll


You must be logged in to view polls



Torrent Details For "Titanic (1997) 720p Blu-Ray x264 [Dual Audio] Hindi+English AAC { TaRa }.mkv"

Titanic (1997) 720p Blu-Ray x264 [Dual Audio] Hindi+English AAC { TaRa }.mkv

Download this torrent | Magnet Download
Health:
Seeds: 40
Leechers: 0
Completed: 3,128 
Last Checked: 19-09-2017 22:49:41
External Torrent
Update Stats
Download Magnet


Poster


Watch-Free-HD     Download

Details
Name:Titanic (1997) 720p Blu-Ray x264 [Dual Audio] Hindi+English AAC { TaRa }.mkv
Description:

Titanic (1997) 720p Blu-Ray x264 [Dual Audio] Hindi+English AAC { TaRa }.mkv


===================================================================
General
Complete name               : Titanic (1997) 720p Blu-Ray x264 [Dual Audio] Hindi+English AAC { TaRa }.mkv
Format                      : Matroska
Format version              : Version 4 / Version 2
File size                   : 981 MiB
Duration                    : 3 h 6 min
Overall bit rate            : 734 kb/s
===================================================================
Video
ID                          : 1
Format                      : AVC
Format/Info                 : Advanced Video Codec
Format profile              : [email protected]
Format settings, CABAC      : Yes
Format settings, ReFrames   : 4 frames
Codec ID                    : V_MPEG4/ISO/AVC
Duration                    : 3 h 6 min
Bit rate                    : 603 kb/s
Width                       : 1 216 pixels
Height                      : 512 pixels
Display aspect ratio        : 2.40:1
Frame rate mode             : Constant
Frame rate                  : 25.000 FPS
Color space                 : YUV
Chroma subsampling          : 4:2:0
Bit depth                   : 8 bits
Scan type                   : Progressive
Bits/(Pixel*Frame)          : 0.039
Stream size                 : 805 MiB (82%)
Title                       : Titanic { Hindi }  .....::::: TaRa :::::.....
Language                    : Hindi
Default                     : Yes
Forced                      : No
===================================================================
Audio #1
ID                          : 2
Format                      : AAC
Format/Info                 : Advanced Audio Codec
Format profile              : LC
Codec ID                    : A_AAC
Duration                    : 3 h 6 min
Bit rate                    : 64.2 kb/s
Channel(s)                  : 2 channels
Channel positions           : Front: L R
Sampling rate               : 48.0 kHz
Frame rate                  : 46.875 FPS (1024 spf)
Compression mode            : Lossy
Stream size                 : 85.7 MiB (9%)
Title                       : Titanic { Hindi }  .....::::: TaRa :::::.....
Language                    : English
Default                     : Yes
Forced                      : No
===================================================================
Audio #2
ID                          : 3
Format                      : AAC
Format/Info                 : Advanced Audio Codec
Format profile              : LC
Codec ID                    : A_AAC
Duration                    : 3 h 6 min
Bit rate                    : 64.2 kb/s
Channel(s)                  : 2 channels
Channel positions           : Front: L R
Sampling rate               : 48.0 kHz
Frame rate                  : 46.875 FPS (1024 spf)
Compression mode            : Lossy
Stream size                 : 85.7 MiB (9%)
Title                       : Titanic { English } .....::::: TaRa :::::.....
Language                    : Hindi
Default                     : No
Forced                      : No
===================================================================



 











Category:Movies > Hollywood Dub
Lang:English  English
Total Size:980.62 MB
Info Hash:62f03a64d3aab22b8f8d71ff43b1cff44883c7b6
Added By:SkTaRa
Date Added:29-03-2017 16:35:43
Views:1,372
Hits:333

Download Torrent

Ratings:Not Yet Rated (Log in to rate it)

  


Tracker:
udp://tracker.ccc.de:80/announce

This Torrent also has backup trackers
URLSeedersLeechersCompleted
http://tracker.dler.org:6969/announce000
http://ipv4.tracker.harry.lu:80/announce602


File List: 


Comments

No comments still posted

Powered by 10 Hamsters v2-svn -|- Page Generated In 0.760703 secs.
-|- RSS FEED
Theme By: Nikkbu